Abril 25, 2017, 09:13:52 pm

Autor Tema: [RAW] Naruto 220/220 MEGA .MKV [No sub] [Audio Japonés]  (Leído 2450 veces)

0 Usuarios y 1 Visitante están viendo este tema.

M4rc05

  • Kura - 中忍 - Chûnin
  • **
  • Mensajes: 53
  • Karma: 3
[RAW] Naruto 220/220 MEGA .MKV [No sub] [Audio Japonés]
« en: Enero 09, 2015, 12:14:37 pm »

¡Hola!, hace unos meses descargué una RAW de naruto pero tenia doble audio, un primer audio en ingles que tenia un dub en Tailandés (un sujeto traduciendo sobre el audio ingles), y el segundo audio en Japonés, le quite el primero quedando la RAW en japones original. Espero que alguien le sea de utilidad, es especial por la calidad de imagen, ya que a mi no mucho, solo de colección xD.

Nombre serie: Naruto
Fecha transmisión: 3 de octubre del 2002 a 8 de febrero del 2007
Numero de archivos: 220
Servidor: Mega.co.nz
Tamaño individual: 186MB
Tamaño total: 40.07GB
Contenedor: MKV
Resolución: 720x544
Vídeo: H.264/MPEG-4 AVC
Audio: AC3
Información detallada:
Mostrar Contenido
Format                      : Matroska
Format version              : Version 4 / Version 2
File size                   : 186 MiB
Duration                    : 23mn 20s
Overall bit rate            : 1 116 Kbps


Video
ID                          : 1
Format                      : AVC
Format/Info                 : Advanced Video Codec
Format profile              : High@L3.0
Format settings, CABAC      : Yes
Format settings, ReFrames   : 5 frames
Codec ID                    : V_MPEG4/ISO/AVC
Duration                    : 23mn 20s
Bit rate                    : 922 Kbps
Width                       : 720 pixels
Height                      : 544 pixels
Display aspect ratio        : 4:3
Frame rate mode             : Constant
Frame rate                  : 23.976 fps
Color space                 : YUV
Chroma subsampling          : 4:2:0
Bit depth                   : 8 bits
Scan type                   : Progressive
Bits/(Pixel*Frame)          : 0.098
Stream size                 : 151 MiB (81%)
Writing library             : x264 core 98 r1649 c54c47d
Encoding settings           : cabac=1 / ref=5 / deblock=1:-1:-1 / analyse=0x3:0x133 / me=umh / subme=6 / psy=1 / psy_rd=1.00:0.00 / mixed_ref=1 / me_range=16 / chroma_me=1 / trellis=2 / 8x8dct=1 / cqm=0 / deadzone=21,11 / fast_pskip=1 / chroma_qp_offset=-2 / threads=6 / sliced_threads=0 / nr=0 / decimate=1 / interlaced=0 / constrained_intra=0 / bframes=3 / b_pyramid=0 / b_adapt=2 / b_bias=0 / direct=3 / weightb=1 / weightp=2 / keyint=250 / keyint_min=25 / scenecut=40 / intra_refresh=0 / rc_lookahead=40 / rc=2pass / mbtree=1 / bitrate=922 / ratetol=1.0 / qcomp=0.60 / qpmin=10 / qpmax=51 / qpstep=4 / cplxblur=20.0 / qblur=0.5 / ip_ratio=1.40 / aq=1:1.00
Language                    : English
Default                     : Yes
Forced                      : No
DURATION                    : 00:23:20.983000000
NUMBER_OF_FRAMES            : 33590
NUMBER_OF_BYTES             : 161500448
_STATISTICS_WRITING_APP     : mkvmerge v7.3.0 ('Nouages') 64bit built on Oct 22 2014 18:53:34
_STATISTICS_WRITING_DATE_UT : 2014-12-02 16:50:25
_STATISTICS_TAGS            : BPS DURATION NUMBER_OF_FRAMES NUMBER_OF_BYTES

Audio
ID                          : 2
Format                      : AC-3
Format/Info                 : Audio Coding 3
Mode extension              : CM (complete main)
Format settings, Endianness : Big
Codec ID                    : A_AC3
Duration                    : 23mn 20s
Bit rate mode               : Constant
Bit rate                    : 192 Kbps
Channel(s)                  : 2 channels
Channel positions           : Front: L R
Sampling rate               : 48.0 KHz
Bit depth                   : 16 bits
Compression mode            : Lossy
Stream size                 : 32.1 MiB (17%)
Title                       : Japanese
Language                    : Japanese
Default                     : No
Forced                      : No

Carpeta Mega: https://mega.co.nz/#F!xUd3iIQD!L4iZLwDfnEF-qU1z-LsnSg

Recomendación: Descargar con JDownloader o Mipony

¡Saludos!

« última modificación: Enero 09, 2015, 09:08:36 pm por M4rc05 »

Raa10

  • Kura - 中忍 - Chûnin
  • **
  • Mensajes: 118
  • Karma: 4
  • Sexo: Masculino
  • El Mejor Hombre Es Aquel Quien No Es Nadie
Re:[RAW] Naruto 220/220 MEGA .MKV [No sub] [Audio Japonés]
« Respuesta #1 en: Enero 09, 2015, 07:13:17 pm »
amigo yo tengo todos los subtitulos en español pero no se si estan sincronizados con esta vercion ya que los sub que tengo son de las raws 1280x960p si los quieres te  los paso para que los sincronises y los compartas claro si es que sabes sincronisar ;D
Lo Que Algun Dia Gustaria De Ver


M4rc05

  • Kura - 中忍 - Chûnin
  • **
  • Mensajes: 53
  • Karma: 3
Re:[RAW] Naruto 220/220 MEGA .MKV [No sub] [Audio Japonés]
« Respuesta #2 en: Enero 09, 2015, 08:47:47 pm »
amigo yo tengo todos los subtitulos en español pero no se si estan sincronizados con esta vercion ya que los sub que tengo son de las raws 1280x960p si los quieres te  los paso para que los sincronises y los compartas claro si es que sabes sincronisar ;D
Sé sincronizar pero no sé si tendré el tiempo para hacerlo xD aunque ganas no me faltan~ así que sí, si me los puedes pasar, o incluso mejor dejar publicado en este mismo hilo para que cualquiera acceda al contenido, seria excelente... además me quede un poco WTF con "raw a 1280x960p" por lo que estoy como loco descargando esa versión, (que ya encontré, googleando: "1280x960p naruto" xD)~ aunque puede que sea solo un Up-scale de esta versión, pixeles basura y una calidad que se puede lograr ampliando los que acabo de subir con el mismo reproductor. Pero también pasar que al reducir el tamaño con el reproductor se logre una mejor imagen ya que la raw sea superior (halla sido sacada de un bluray y ripeada mejor que las que acabo de subir)... hay tantas opciones xD :3

Bueno, saludos y gracias, tú decides como prefieres enviarme los subtitulos, pero ahora no sé si sincronizaré para esta versión sabiendo que existe la 1280x960 xDD~

Edito: Creo que te refieres a estos subitulos~ dice el usuario que los hizo que fueron subtitulos que descargo y corrigió detalladamente, deje la fuente de su post en identi en un archivo de texto y su nick como crédito en el comprimido y lo subí a mega~:
Son para la versión 1280x960 que tú mencionabas~
https://mega.co.nz/#!9AkTFJxT!Hk_qSEA0FMNYu7wyCsEikKzCWniNihdge9GdAszgy8k by: Draghon, de identi.li
(Por si a alguien le interesa).
« última modificación: Enero 09, 2015, 11:55:02 pm por M4rc05 »

Chassman

  • Kura - 上忍 - Jônin
  • ***
  • Mensajes: 364
  • País: gt
  • Karma: 16
  • Sexo: Masculino
Re:[RAW] Naruto 220/220 MEGA .MKV [No sub] [Audio Japonés]
« Respuesta #3 en: Febrero 11, 2015, 11:25:01 am »
Que buen aporte, voy a descargarlo y ver la calidad de la imagen, a ver que tal!!!!

Yo tengo toda la saga en Audio Latino, aunque la calidad de imagen es algo pobre. Quizás se pueda hacer una versión decente de ambas y con todo y subtítulos.  XD

Nuevamente muchas gracias y saludos.

Waljrtor

  • Kura - 下忍 - Genin
  • *
  • Mensajes: 28
  • País: 00
  • Karma: 4
  • No se quien sere mañana, pero si quien hoy.
Re:[RAW] Naruto 220/220 MEGA .MKV [No sub] [Audio Japonés]
« Respuesta #4 en: Febrero 13, 2015, 03:21:45 pm »
Gracias por compartir amigo  :)

jojelo

  • Kura - 下忍 - Genin
  • *
  • Mensajes: 1
  • País: pe
  • Karma: 0
Re:[RAW] Naruto 220/220 MEGA .MKV [No sub] [Audio Japonés]
« Respuesta #5 en: Febrero 27, 2015, 09:04:42 am »
hola.. me encanta este web y sobre todo el trabajo que hacen... naruto marco una parte de mi vida me encanta..!!! ahora que uds tienen las dos versiones me pregunta seria... cual de las dos seria mejor para poder tenerla?.. y si Naruto 1280x960p tiene subtitulos.. ayudeneme por favor..

M4rc05

  • Kura - 中忍 - Chûnin
  • **
  • Mensajes: 53
  • Karma: 3
Re:[RAW] Naruto 220/220 MEGA .MKV [No sub] [Audio Japonés]
« Respuesta #6 en: Febrero 27, 2015, 12:22:33 pm »
hola.. me encanta este web y sobre todo el trabajo que hacen... naruto marco una parte de mi vida me encanta..!!! ahora que uds tienen las dos versiones me pregunta seria... cual de las dos seria mejor para poder tenerla?.. y si Naruto 1280x960p tiene subtitulos.. ayudeneme por favor..

Hola!, este es un post de una publicación de una Raw, sin subtitulos, por lo que a las personas que les interesaría serian a los fansub o personas interesadas en tener las raw de estos episodios en esta resolución.
Por lo que si bien existe una versión de 1280x960, y existen subtitulos para descargar para esa versión, que se puede encontrar fácilmente googleando, es recomendable esa versión para "ver" como usuario.
¡Saludos!